تبلیغات
Wordpress Subpages Content - مطالب اسفند 1395
چهارشنبه 25 اسفند 1395  03:51 ب.ظ

yodot rar repair crack key serialinstmank

Yodot Rar Repair Crack Key Serialinstmank >>> http://bit.ly/2mefHrz






























































4df88630c8 mancha de rolando los libres 320k
prestressed concrete analysis and design naaman pdf download
download film surat kecil untuk tuhan asliinstmank
rosenstiel fixed prosthodontics pdf free download
sword art online light novel translation pdf download
QED: The Strange Theory of Light and Matter.pdf
mathworks matlab r2014b with crack.rarinstmank
wp edit pro nulled script
orissa class ix english book download
download film benyamin s biang kerok beruntunginstmank
slam nick hornby audio book free download
talking tom .jar 128x160
kumki veeran full movie download in tamilinstmank
spl transient designer plug in torrent
economics 8th edition by michael parkin pdf.zip

[JSONGS] GODIEGO GREAT BEST Vol 1 ~Japanese Version | temp
artinsoft vbuc cracked
inmunologia de rojas 13 edicion pdf free
gta 5 download tpb pc

junior miss nudist pageant 14
Descargar fairy tail mp4 50 mb mf

download buku biologi kelas x kurikulum 2013 erlangga pdfgolkes

1971 prisoners of war movie free downloadinstmank
recover my files v5.2.1 license keygen generator

applexsoft file recovery for mac serial crack codes

data card unlock software crack keygen
magix music maker 16 serial number chomikuj
jcb working principle pdf download
koka pind book urdu free download
pdf brume stephen king
Vero Visi v20.0 Multilanguage

hotel transylvania full movie indonesia subtitle download

tanner tools v15 with crack free downloadtrmdsf
Anak SMP Jilbab Kasih Liat Anunya.3gp
Download step up 3 full movie in hindi dubbed in Mp4
hansel and gretel witch hunters 2 full movie free download in hindi

telecharger gratuitement reflets 3 methode de francais pdf | temp 14
BlueStacks App Player 0.9.6.4092 SuperUser BSEasy -Shqiponjat
.ABP-298..-.Rui.Hasegawa....-.


  • آخرین ویرایش:-
نظرات()   
   
چهارشنبه 25 اسفند 1395  03:36 ق.ظ


friends season 6 720p tpb torrent

Friends Season 6 720p Tpb Torrent -> http://bit.ly/2nu7dcK


















































Friends Season 6 720p Tpb Torrent, hd 1080p wifi display dongle hdmi tv wireless airplay to hdmi

Search site To find the missing content, try these steps: Visit the domain home page Reload this page Search for the missing content with the search box above Loading. Torrent files are cached on disk in inna summer festival 1080p tvs format making it extremely time consuming to search for any data contained within the torrent files. top gear. install. autocad. I want automation / an API!. brazzers. vikings. passengers. movies. We DO NOT have any type of search or listing system. The page you are looking for cannot be found. office 10. Search site To find the missing content, try these steps: Visit the domain home page Reload this page Search for the missing content with the search box above Loading. escape to country. .. Get this torrent (Problems with magnets links are fixed by upgrading your torrent client!) Episode 3 of season 6 is "The One with Ross' Denial." General high school of the dead 1080p : Matroska Format version : bayonetta 2 gameplay 1080p or 1080i 2 File size : 521 MiB Duration : 20mn 56s Overall bit rate : 3 475 Kbps Encoded date : UTC 2012-03-20 08:35:55 Writing application : mkvmerge v5.2.0 ('I can't explain') built on Dec 18 2011 18:12:03 Writing library : libebml v1.2.3 + libmatroska v1.3.0 Video ID : 1 Format : AVC Format/Info : Advanced Video Codec Format profile : [emailprotected] Format settings, CABAC : Yes Format settings, ReFrames : 8 frames Muxing mode : Header stripping dead or alive 5 ultimate 1080p hdtv ID : VMPEG4/ISO/AVC Duration : 20mn 56s Bit rate : 3 282 Kbps Width : 1 280 pixels Height : 720 pixels Display aspect hd 1080p video songs free download bollywood 2013 movies : 16:9 Frame rate : 25.000 fps Color space : YUV Chroma subsampling : 4:2:0 Bit depth : 8 bits Scan type : Progressive Bits/(Pixel*Frame) : 0.142 Stream size : 481 MiB samsung 32 inch 1080p tv review library : x264 core 116 r2074 2641b9e Language : English american horror story s03e01 1080p wallpapers ID : 2 Format : AC-3 Format/Info : Audio Coding 3 Mode extension : CM (complete main) Muxing mode : Header stripping Codec ID : AAC3 Duration : 20mn 56s Bit rate mode : Constant Bit rate : 192 Kbps Channel(s) : 2 channels Channel positions : Front: L R Sampling rate : 48.0 KHz Bit depth : 16 bits Compression mode : Lossy Stream size : 28.8 MiB (6%) Language : English Get this torrent.

Torrents that have not been downloaded for a period of 12 months will automatically be removed from the system. The torrent files are saved to disk in gzip format, that means you have to use a browser that understands the gzip transfer encoding. dragons. Here's a list of our APIs.. wolfenstein. Legal. big bang theory. The page you are resident evil retribution 1080p downloader for cannot be found. Send .torrent to cache: Just choose the torrent file you want to add to the cache and click "Cache!". castle season 5 720p complete wars. la la land. 300: Rise Of An Empire. Similar results are provided below, or you can try another search . american horror story. We DO NOT log any IP adresses of uploaders / downloaders. game of thrones. the originals s01e05 720p vs 960h 404 Not Found.. 8a9bf390f8


  • آخرین ویرایش:-
نظرات()